<?xml version="1.0" standalone="no"?>
<!DOCTYPE svg PUBLIC "-//W3C//DTD SVG 1.1//EN" "http://www.w3.org/Graphics/SVG/1.1/DTD/svg11.dtd" >
<!--
2013-9-30: Created.
-->
<svg>
<metadata>
Created by iconfont
</metadata>
<defs>

<font id="iconfont" horiz-adv-x="1024" >
  <font-face
    font-family="iconfont"
    font-weight="500"
    font-stretch="normal"
    units-per-em="1024"
    ascent="896"
    descent="-128"
  />
    <missing-glyph />
    
    <glyph glyph-name="quanping" unicode="&#60177;" d="M358.4 128H426.666667v-85.333333H213.333333v213.333333h85.333334v-68.266667l128 128 59.733333-59.733333-128-128z m345.6 0l-128 128 59.733333 59.733333 132.266667-132.266666V256h85.333333v-213.333333h-213.333333v85.333333h64zM358.4 597.333333l128-128-59.733333-59.733333-128 128V469.333333H213.333333V682.666667h213.333334v-85.333334H358.4z m345.6 0H640V682.666667h213.333333v-213.333334h-85.333333V541.866667l-132.266667-132.266667-59.733333 59.733333 128 128z"  horiz-adv-x="1024" />

    
    <glyph glyph-name="quanxian" unicode="&#58943;" d="M1011.811097-119.560258H507.375484a160.718452 160.718452 0 0 0-160.536774 160.536774V339.076129A160.718452 160.718452 0 0 0 507.375484 499.612903h504.501677a160.668903 160.668903 0 0 0 160.487226-160.536774V40.96a160.718452 160.718452 0 0 0-160.536774-160.536774zM507.375484 453.747613a114.737548 114.737548 0 0 1-114.671484-114.671484V40.96c0-63.256774 51.41471-114.721032 114.671484-114.721032h504.501677c63.207226 0 114.621935 51.464258 114.621936 114.721032V339.076129a114.737548 114.737548 0 0 1-114.621936 114.671484H507.375484zM1246.967742 681.290323a74.322581 74.322581 0 1 0 0 148.645161 74.322581 74.322581 0 0 0 0-148.645161z m0 33.032258a41.290323 41.290323 0 1 1 0 82.580645 41.290323 41.290323 0 0 1 0-82.580645zM322.064516 821.677419a33.032258 33.032258 0 1 0 0 66.064516 33.032258 33.032258 0 0 0 0-66.064516z m0 16.516129a16.516129 16.516129 0 1 1 0 33.032258 16.516129 16.516129 0 0 1 0-33.032258zM173.419355 20.645161a57.806452 57.806452 0 1 0 0 115.612904 57.806452 57.806452 0 0 0 0-115.612904z m0 33.032258a24.774194 24.774194 0 1 1 0 49.548387 24.774194 24.774194 0 0 1 0-49.548387zM194.064516 470.709677v33.032258a12.387097 12.387097 0 1 0 24.774194 0v-33.032258h33.032258a12.387097 12.387097 0 1 0 0-24.774193h-33.032258v-33.032258a12.387097 12.387097 0 1 0-24.774194 0v33.032258h-33.032258a12.387097 12.387097 0 1 0 0 24.774193h33.032258zM1419.792516 169.884903v23.585032a8.852645 8.852645 0 0 0 17.70529 0v-23.585032h23.585033a8.852645 8.852645 0 0 0 0-17.70529h-23.585033v-23.585032a8.852645 8.852645 0 0 0-17.70529 0v23.585032h-23.585032a8.852645 8.852645 0 0 0 0 17.70529h23.585032zM1274.698323 480.140387v14.170839a5.301677 5.301677 0 0 0 10.603354 0v-14.170839h14.170839a5.301677 5.301677 0 0 0 0-10.603355h-14.170839v-14.170838a5.301677 5.301677 0 0 0-10.603354 0v14.170838h-14.170839a5.301677 5.301677 0 0 0 0 10.603355h14.170839zM23.122581-78.451613h1126.4a23.122581 23.122581 0 1 0 0-46.245161H23.122581a23.122581 23.122581 0 1 0 0 46.245161zM1245.316129-78.451613h135.432258a23.122581 23.122581 0 1 0 0-46.245161h-135.432258a23.122581 23.122581 0 1 0 0 46.245161zM1476.541935-78.451613h52.851613a23.122581 23.122581 0 1 0 0-46.245161h-52.851613a23.122581 23.122581 0 1 0 0 46.245161zM501.908645 456.621419A22.874839 22.874839 0 0 0 478.967742 479.562323v114.671483C478.967742 734.786065 595.802839 845.064258 745.571097 846.451613h2.824258c147.307355-1.387355 257.998452-109.369806 257.998451-252.217807v-45.86529a22.940903 22.940903 0 0 0-45.86529 0v45.86529c0 117.198452-91.730581 205.691871-213.570064 206.402065-124.663742-0.710194-222.174968-91.136-222.174968-206.402065v-114.671483a22.874839 22.874839 0 0 0-22.874839-22.940904zM731.268129 91.664516a137.761032 137.761032 0 0 0-114.754064 135.630452 137.794065 137.794065 0 0 0 137.612387 137.612387 137.794065 137.794065 0 0 0 137.595871-137.612387 137.827097 137.827097 0 0 0-114.754065-135.630452 23.122581 23.122581 0 0 0 0.082581-1.915871v-68.806193c0-12.667871-10.24-22.957419-22.924387-22.990452a22.990452 22.990452 0 0 0-22.940904 22.990452v68.806193a23.122581 23.122581 0 0 0 0.082581 1.915871z m22.858323 227.377549a91.86271 91.86271 0 0 1-91.747097-91.747097 91.879226 91.879226 0 0 1 91.747097-91.796645 91.86271 91.86271 0 0 1 91.73058 91.747096c0 50.555871-41.224258 91.796645-91.73058 91.796646z"  horiz-adv-x="1552" />

    
    <glyph glyph-name="closeOther" unicode="&#58929;" d="M512-66C263.9-66 62 135.89999999999998 62 384S263.9 834 512 834s450-201.9 450-450-201.9-450-450-450z m0 835.7c-212.7 0-385.7-173-385.7-385.7s173-385.7 385.7-385.7 385.7 173 385.7 385.7-173 385.7-385.7 385.7zM807.5 56.39999999999998c-8.2 0-16.4 3.1-22.7 9.4l-591 590.9c-12.6 12.6-12.6 32.9 0 45.5s32.9 12.6 45.5 0l590.9-590.9c12.6-12.6 12.6-32.9 0-45.5-6.3-6.2-14.5-9.4-22.7-9.4z"  horiz-adv-x="1024" />

    
    <glyph glyph-name="close-circle" unicode="&#58921;" d="M512-120C233.6-120 8 105.60000000000002 8 384S233.6 888 512 888 1016 662.4 1016 384 790.4-120 512-120z m0 960C260.8 840 56 635.2 56 384S260.8-72 512-72 968 132.79999999999995 968 384 763.2 840 512 840zM548.8 384l195.2 195.2c9.6 9.6 9.6 25.6 0 36.8l-1.6 1.6c-9.6 9.6-25.6 9.6-35.2 0L512 420.8 316.8 616c-9.6 9.6-25.6 9.6-35.2 0l-1.6-1.6c-9.6-9.6-9.6-25.6 0-36.8L475.2 384 280 188.79999999999995c-9.6-9.6-9.6-25.6 0-36.8l1.6-1.6c9.6-9.6 25.6-9.6 35.2 0L512 347.20000000000005l195.2-195.2c9.6-9.6 25.6-9.6 35.2 0l1.6 1.6c9.6 9.6 9.6 25.6 0 36.8L548.8 384z"  horiz-adv-x="1024" />

    
    <glyph glyph-name="closeAll" unicode="&#58895;" d="M40.960024 895.999974h788.47996a10.270719 10.270719 0 0 0 10.24-10.239999v-71.679997a10.270719 10.270719 0 0 0-10.24-10.239999H92.160021v-737.279963a10.269439 10.269439 0 0 0-10.239999-10.24H10.240025a10.269439 10.269439 0 0 0-10.239999 10.24V855.039976A40.916478 40.916478 0 0 0 40.960024 895.999974zM983.039976 732.159983H204.800015a40.916478 40.916478 0 0 1-40.959998-40.959998v-778.239961a40.916478 40.916478 0 0 1 40.959998-40.959998h778.239961a40.916478 40.916478 0 0 1 40.959998 40.959998V691.199985a40.916478 40.916478 0 0 1-40.959998 40.959998z m-51.199997-767.999962H256.000013V639.9999869999999h675.839966zM414.813445 122.88001299999996h66.591997a18.440959 18.440959 0 0 1 13.905919 6.42432l98.136315 116.648954 98.136315-116.648954A18.090239 18.090239 0 0 1 705.49119 122.88001299999996h66.591997a8.96 8.96 0 0 1 6.89664 14.764799L640.707834 302.08000400000003l138.384633 164.435192A8.96 8.96 0 0 1 772.195827 481.279995h-66.591997a18.442239 18.442239 0 0 1-13.905919-6.42432l-98.248955-116.648954-98.136315 116.648954A18.091519 18.091519 0 0 1 481.406722 481.279995h-66.593277a8.96 8.96 0 0 1-6.89664-14.764799L546.186238 302.08000400000003 407.916805 137.644812A8.96 8.96 0 0 1 414.813445 122.88001299999996z"  horiz-adv-x="1024" />

    
    <glyph glyph-name="refresh" unicode="&#58905;" d="M929.536 688c-17.664 0-32-14.336-32-32l0-45.024C819.712 743.104 676.448 832 512 832 264.576 832 64 631.424 64 384s200.576-448 448-448c149.728 0 281.6 73.952 362.88 186.816 0.256 0.256 0.416 0.544 0.64 0.8 0.992 1.408 2.208 2.656 3.2 4.064-0.128 0.064-0.192 0.16-0.32 0.224 3.52 5.184 6.08 11.072 6.08 17.792 0.032 17.856-14.432 32.288-32.224 32.288-12.608 0-23.264-7.424-28.576-17.984l-0.224 0c-69.728-96.768-183.072-160-311.456-160C299.936 0 128 171.93600000000004 128 384S299.936 768 512 768c148.544 0 276.832-84.608 340.672-208l-51.136 0c-17.664 0-32-14.336-32-32s14.336-32 32-32l128 0c17.664 0 32 14.336 32 32l0 128C961.536 673.664 947.2 688 929.536 688z"  horiz-adv-x="1024" />

    
    <glyph glyph-name="tree" unicode="&#59112;" d="M177.697 154.957h185.982c12.353-0.196 22.195-10.36 22.008-22.705-0.195-12.074-9.935-21.804-22.008-21.999h-208.22c-12.328-0.068-22.382 9.859-22.458 22.177V557.032h-22.237c-12.404 0-22.449 10.045-22.449 22.449V668.65c0 12.396 10.045 22.45 22.449 22.45h89.178c12.395-0.017 22.423-10.063 22.44-22.45v-89.177c0-12.396-10.045-22.441-22.44-22.441h-22.238v-163.831h185.992c12.335 0.017 22.348-9.977 22.365-22.321 0.007-12.344-9.986-22.356-22.331-22.373H177.705v-193.55h-0.008zM311.696 668.65c-0.008 12.387 10.037 22.45 22.432 22.45h565.771c12.386-0.017 22.432-10.063 22.45-22.45v-89.177c0-12.396-10.045-22.441-22.45-22.441H334.146c-12.396 0-22.449 10.045-22.458 22.441V668.65h0.008z m163.823-253.202c-0.025 12.378 9.985 22.432 22.365 22.457H899.9c12.386-0.025 22.432-10.062 22.45-22.457v-89.168c0-12.354-10.021-22.384-22.382-22.384H498.035c-12.396-0.032-22.483 9.986-22.517 22.384v89.168h0.001z m0-238.255c0 12.371 10.011 22.448 22.517 22.448H899.9c12.386-0.015 22.432-10.061 22.45-22.448v-89.169c0.031-12.362-9.943-22.417-22.297-22.449H498.035c-12.396-0.033-22.483 9.978-22.517 22.373v89.245h0.001z"  horiz-adv-x="1024" />

    
    <glyph glyph-name="tuichu" unicode="&#58919;" d="M765.824 173.792 765.824 301.408 446.72 301.408 446.72 429.088l319.04 0L765.76 556.768l191.424-191.488L765.824 173.792zM702.016 237.6l0-255.232L382.912-17.632l0-191.488L0-17.632 0 812l702.016 0 0-319.104L638.272 492.896 638.272 748.192 127.68 748.192l255.232-127.68 0-574.336 255.36 0L638.272 237.6 702.016 237.6z"  horiz-adv-x="1024" />

    
    <glyph glyph-name="moveSort2" unicode="&#58928;" d="M384 576a64 64 0 1 0 0 128 64 64 0 0 0 0-128z m256 0a64 64 0 1 0 0 128 64 64 0 0 0 0-128zM384 320a64 64 0 1 0 0 128 64 64 0 0 0 0-128z m256 0a64 64 0 1 0 0 128 64 64 0 0 0 0-128z m-256-256a64 64 0 1 0 0 128 64 64 0 0 0 0-128z m256 0a64 64 0 1 0 0 128 64 64 0 0 0 0-128z"  horiz-adv-x="1024" />

    
    <glyph glyph-name="moveSort1" unicode="&#59708;" d="M426.666667 341.33333300000004v85.333334h341.333333v-85.333334h-341.333333z m0-256v85.333334h170.666666v-85.333334h-170.666666z m0 511.914667V682.666667h512v-85.418667H426.666667zM256 170.66666699999996h106.666667L213.333333 21.33333300000004 64 170.66666699999996H170.666667V597.333333H64L213.333333 746.666667 362.666667 597.333333H256v-426.666666z"  horiz-adv-x="1024" />

    
    <glyph glyph-name="moveSort" unicode="&#59197;" d="M660.7 708.6c9.2 0 18.1-3.7 24.6-10.2 6.5-6.5 10.2-15.4 10.2-24.6v-580.7c0-15.5-10.2-29.1-25.1-33.5-14.9-4.3-30.8 1.7-39.2 14.8-3.8 1.7-7.3 4.1-10.2 7.1l-82 82c-12.8 13.7-12.4 35.1 0.9 48.4 13.3 13.3 34.7 13.6 48.4 0.9l37.6-37.6V673.8c0 9.2 3.7 18.1 10.2 24.6 6.5 6.5 15.4 10.2 24.6 10.2z m166.6-650.4c-9.2 0-18.1 3.7-24.6 10.2-6.5 6.5-10.2 15.4-10.2 24.6V673.8c0 15.5 10.2 29.1 25.1 33.4 14.9 4.3 30.8-1.7 39.1-14.7 3.7-1.6 7.2-4 10.3-7.1l82.1-82.1c9.3-8.7 13.2-21.8 10-34.1-3.2-12.3-12.8-22-25.1-25.1s-25.4 0.7-34.1 10l-37.6 37.6v-498.6c0-9.2-3.7-18.1-10.2-24.6-6.7-6.6-15.5-10.3-24.8-10.3z m0 0M99.1 708.6H494c23.2 0 34.8-11.6 34.8-34.8 0-23.2-11.6-34.8-34.8-34.8H99.1c-23.2 0-34.8 11.6-34.8 34.8-0.1 23.2 11.5 34.8 34.8 34.8z m0 0M99.1 429.9h302c19.2 0 34.8-15.6 34.8-34.8 0-19.2-15.6-34.8-34.8-34.8h-302c-19.2 0-34.8 15.6-34.8 34.8-0.1 19.2 15.5 34.8 34.8 34.8z m0-278.8h302c12.4 0 24-6.6 30.2-17.4 6.2-10.8 6.2-24.1 0-34.8-6.2-10.8-17.7-17.4-30.2-17.4h-302c-12.4 0-23.9 6.6-30.2 17.4-6.2 10.8-6.2 24.1 0 34.8 6.2 10.8 17.7 17.4 30.2 17.4z m0 0"  horiz-adv-x="1024" />

    
    <glyph glyph-name="edit" unicode="&#58927;" d="M870.96462219 10.614434999999958L226.136855 10.614434999999958l99.42411 30.05834062L166.55932906 199.67441250000002 107.80300531 5.327459999999974c-1.29991875-4.30076437-0.99868312-8.51134969 0.43554469-12.18949594 0.95263406-7.66424344 7.52130094-13.64962594 15.4320975-13.64962593L870.96462219-20.511660939999956c8.55931687 0 15.5635275 7.00325156 15.5635275 15.5635275S879.52393906 10.614434999999958 870.96462219 10.614434999999958zM897.4762475 696.60597281l-74.98372125 74.98372125c-23.20090969 23.20090969-60.81700594 23.20090969-84.01791563 0l-42.97022624-42.97022625 159.00163687-159.00163687 42.97022625 42.97022625C920.67715719 635.78896688 920.67715719 673.40506313 897.4762475 696.60597281zM653.10401187 590.81849719L674.30467719 612.01820344 695.50438438 590.81849719 785.605535 500.71734563 833.305355 548.41812469 674.30467719 707.4188025 186.7008725 219.81499781000002 234.4006925 172.11517780999998ZM345.70279344 60.80923218999999l-90.09993188 90.09993187 418.69900688 418.69900688 90.09993187-90.09993188-418.69900687-418.69900687Z"  horiz-adv-x="1024" />

    
    <glyph glyph-name="arrow-leftMore-circle" unicode="&#58915;" d="M107 384a405 405 0 1 1 810 0 405 405 0 0 1-810 0z m-44.99999999 0C62 632.5350000000001 263.465 834 512 833.99999999S962 632.5350000000001 961.99999999 384s-201.465-450-449.99999999-449.99999999-450 201.465-449.99999999 449.99999999zM363.815 384l119.11500001-119.07a22.5 22.5 0 1 0-31.86000001-31.86l-135 135a22.5 22.5 0 0 0 0 31.86l135 135a22.5 22.5 0 0 0 31.86000001-31.86L363.815 384zM543.815 384l119.115-119.07a22.5 22.5 0 0 0-31.86-31.86l-135 135a22.5 22.5 0 0 0 0 31.86l135 135a22.5 22.5 0 0 0 31.86-31.86L543.815 384z"  horiz-adv-x="1024" />

    
    <glyph glyph-name="arrow-rightMore-circle" unicode="&#59132;" d="M917 384a405 405 0 1 1-810 0 405 405 0 0 1 810 0z m44.99999999 0C962 135.46500000000003 760.535-66 512-65.99999998999999S62 135.46500000000003 62.00000001 384s201.465 450 449.99999999 449.99999999 450-201.465 449.99999999-449.99999999zM660.185 384l-119.11500001 119.07a22.5 22.5 0 1 0 31.86000001 31.86l135-135a22.5 22.5 0 0 0 0-31.86l-135-135a22.5 22.5 0 0 0-31.86000001 31.86L660.185 384zM480.185 384l-119.115 119.07a22.5 22.5 0 0 0 31.86 31.86l135-135a22.5 22.5 0 0 0 0-31.86l-135-135a22.5 22.5 0 0 0-31.86 31.86L480.185 384z"  horiz-adv-x="1024" />

    
    <glyph glyph-name="checkbox-empty" unicode="&#58917;" d="M849.5 777.75c33.75 0 56.25-22.5 56.25-56.25l0-675c0-33.75-22.5-56.25-56.25-56.25L174.5-9.75c-33.75 0-56.25 22.5-56.25 56.25L118.25 721.5c0 33.75 22.5 56.25 56.25 56.25L849.5 777.75M849.5 834L174.5 834C112.625 834 62 783.375 62 721.5l0-675c0-61.875 50.625-112.5 112.5-112.5l675 0c61.875 0 112.5 50.625 112.5 112.5L962 721.5C962 783.375 911.375 834 849.5 834L849.5 834z"  horiz-adv-x="1024" />

    
    <glyph glyph-name="checkbox" unicode="&#58918;" d="M725.75 592.125L427.625 294 298.25 440.25c-22.5 22.5-56.25 22.5-78.75 0-22.5-22.5-22.5-56.25 0-78.75l163.125-185.625C393.875 164.625 410.75 159 422 159c16.875 0 28.125 5.625 39.375 16.875l337.5 337.5c22.5 22.5 22.5 56.25 0 78.75C782 614.625 742.625 614.625 725.75 592.125zM849.5 834L174.5 834C112.625 834 62 783.375 62 721.5l0-675c0-61.875 50.625-112.5 112.5-112.5l675 0c61.875 0 112.5 50.625 112.5 112.5L962 721.5C962 783.375 911.375 834 849.5 834zM905.75 46.5c0-33.75-22.5-56.25-56.25-56.25L174.5-9.75c-33.75 0-56.25 22.5-56.25 56.25L118.25 721.5c0 33.75 22.5 56.25 56.25 56.25l675 0c33.75 0 56.25-22.5 56.25-56.25L905.75 46.5z"  horiz-adv-x="1024" />

    
    <glyph glyph-name="add" unicode="&#59118;" d="M740.1 411.7L540 412l0.3 200.1c0 15.4-12.5 28-28 28-15.4 0-28-12.5-28-28L484 412l-200.2 0.3c-15.4 0-28-12.5-28-28 0-15.4 12.5-28 28-28l200.2-0.3-0.3-200.2c0-15.4 12.5-28 28-28 15.4 0 28 12.5 28 28L540 356l200.1-0.3c15.4 0 28 12.5 28 28 0 15.4-12.5 28-28 28zM512 832.1C264.5 832.1 63.9 631.5 63.9 384S264.5-64.1 512-64.1 960.1 136.5 960.1 384 759.5 832.1 512 832.1z m271.6-719.7c-35.3-35.3-76.4-63-122.1-82.3-47.3-20-97.6-30.2-149.5-30.2S409.8 10 362.5 30.1c-45.7 19.3-86.8 47-122.1 82.3s-63 76.4-82.3 122.1c-20 47.3-30.2 97.6-30.2 149.5s10.1 102.2 30.2 149.5c19.3 45.7 47 86.8 82.3 122.1s76.4 63 122.1 82.3c47.3 20 97.6 30.2 149.5 30.2 51.9 0 102.2-10.1 149.5-30.2 45.7-19.3 86.8-47 122.1-82.3s63-76.4 82.3-122.1c20-47.3 30.2-97.6 30.2-149.5 0-51.9-10.1-102.2-30.2-149.5-19.3-45.7-47-86.8-82.3-122.1z"  horiz-adv-x="1024" />

    
    <glyph glyph-name="delete" unicode="&#59032;" d="M826.19642832 548.7l-29.6035708-560.79642833a38.79642833 38.79642833 0 0 0-38.73214336-36.73928583H266.10714248a38.79642833 38.79642833 0 0 0-38.73214248 36.73928583L197.80357168 548.7a38.79642833 38.79642833 0 0 0 77.46428584 4.08214248l27.675-524.025h418.11428496l27.64285752 524.025a38.98928584 38.98928584 0 0 0 40.82142832 36.70714336 38.79642833 38.79642833 0 0 0 36.675-40.82142832z m102.85714335 129.85714248c0-21.43928584-17.38928584-38.79642833-38.82857167-38.79642832H133.775a38.79642833 38.79642833 0 0 0 0 77.56071416H347.10714248V804.62142832c0 18.73928584 12.50357168 29.08928584 31.24285752 29.08928584h267.23571416c18.73928584 0 31.24285752-10.35 31.24285752-29.08928584V717.32142832h213.36428584c21.43928584 0 38.79642833-17.35714248 38.79642832-38.79642832zM414.99285752 717.32142832h193.95V765.85714248h-193.95V717.32142832z m16.26428496-630.38571416h0.80357168c18.73928584 0 33.58928584 18 33.13928584 36.77142832l-9.86785752 419.30357168a34.26428584 34.26428584 0 0 1-34.71428496 33.65357168 33.75 33.75 0 0 1-33.13928585-34.48928584l9.83571417-420.20357167c0.45-18.45 15.55714248-35.03571416 33.94285664-35.03571417z m159.94285752 0c18.38571416 0 33.49285752 15.58928584 33.91071416 34.07142832l9.86785752 418.725a34.13571416 34.13571416 0 0 1-33.10714335 34.9714292 33.75 33.75 0 0 1-34.74642833-33.01071416l-9.86785752-419.14285752c-0.45-18.77142832 14.4-35.61428584 33.10714336-35.61428584h0.83571416z"  horiz-adv-x="1024" />

    
    <glyph glyph-name="info" unicode="&#58890;" d="M512-128C229.229714-128 0 101.229714 0 384 0 666.770286 229.229714 896 512 896 794.770286 896 1024 666.770286 1024 384 1024 101.229714 794.770286-128 512-128ZM593.188571 692.955429C586.898286 731.355429 561.225143 748.946286 526.848 743.314286 480.365714 735.744 453.485714 690.870857 460.763429 646.4 466.029714 614.070857 492.397714 592.457143 529.773714 598.564571 576.256 606.171429 600.466286 648.521143 593.188571 692.955429ZM593.956571 231.424C572.635429 203.044571 523.52 154.550857 509.366857 152.246857 502.272 151.076571 500.297143 157.001143 502.857143 166.729143L567.478857 431.469714C571.062857 447.634286 574.976 467.968 573.330286 478.098286 569.709714 500.297143 541.805714 518.582857 519.570286 514.925714 466.029714 506.185143 379.136 441.161143 335.469714 365.531429 332.909714 355.803429 343.149714 343.990857 355.620571 343.954286 369.298286 361.728 418.962286 413.44 436.114286 416.219429 441.197714 417.060571 442.185143 410.989714 440.466286 402.432L376.502857 133.632C371.712 112.128 369.664 99.328 371.492571 88.210286 373.467429 76.068571 398.299429 51.090286 424.557714 55.405714 507.428571 68.937143 586.276571 151.332571 617.106286 210.322286 617.984 223.963429 606.061714 233.398857 593.956571 231.424Z"  horiz-adv-x="1024" />

    
    <glyph glyph-name="error" unicode="&#58912;" d="M512-128a512 512 0 1 0 512 512 512 512 0 0 0-512-512zM438.857143 389.851429L264.777143 212.845714a46.811429 46.811429 0 1 1 49.737143-78.994285 46.811429 46.811429 0 0 1 14.628571 14.628571L506.148571 325.485714l177.005715-177.005714a46.08 46.08 0 1 1 63.634285 64.365714L570.514286 389.851429l176.274285 176.274285a46.811429 46.811429 0 0 1-49.737142 78.994286 44.617143 44.617143 0 0 1-13.897143-14.628571L506.148571 453.485714 329.142857 630.491429a46.811429 46.811429 0 0 1-64.365714-14.628572 49.005714 49.005714 0 0 1 0-49.005714z"  horiz-adv-x="1024" />

    
    <glyph glyph-name="warn" unicode="&#58881;" d="M617.721223 856.929704l476.238403-876.385787c12.36676-22.843059 11.657837-50.412269-1.89046-72.703945a75.460865 75.460865 0 0 0-64.433181-35.839972H75.159179a75.460865 75.460865 0 0 0-64.433181 35.839972 72.625175 72.625175 0 0 0-1.89046 72.703945L485.073941 856.929704A75.382096 75.382096 0 0 0 551.397582 895.999212c27.805517 0 53.326728-14.966142 66.40241-39.069508zM601.494774 500.577978c0 40.014738-28.041825 72.467637-62.62149 72.467637-34.658435 0-62.700259-32.452898-62.70026-72.467637V228.824341c0-40.093508 28.120594-72.467637 62.70026-72.467637 34.579666 0 62.62149 32.452898 62.62149 72.467637V500.577978z m-62.62149-389.592316a63.409182 63.409182 0 0 1-62.70026-64.196873c0-35.446127 28.120594-64.196874 62.70026-64.196874 34.579666 0 62.62149 28.750747 62.62149 64.196874a63.487951 63.487951 0 0 1-62.62149 64.196873z"  horiz-adv-x="1102" />

    
    <glyph glyph-name="close" unicode="&#58887;" d="M777.856 615.808l-33.92 33.952-231.872-231.872-231.84 231.872-33.984-33.888 231.872-231.904-231.84-231.84 33.888-33.984 231.904 231.904 231.84-231.872 33.952 33.888-231.872 231.904z"  horiz-adv-x="1024" />

    
    <glyph glyph-name="set-fill" unicode="&#58910;" d="M925.6 452.9h-41.4c-19 0-39.1 14.8-44.7 32.9l-23.7 57.7c-9 16.7-5.3 41.3 8 54.7l29.4 29.3c13.4 13.5 13.4 35.4 0 48.8L804.4 725c-13.4 13.4-35.3 13.4-48.8 0l-29.3-29.3c-13.4-13.4-38-17.1-54.8-8.1l-57.6 23.7C595.8 716.9 581 737 581 756V797.5c0 18.9-15.6 34.5-34.4 34.5h-68.9c-19 0-34.5-15.6-34.5-34.5v-41.4c0-19-14.8-39.1-32.9-44.7l-57.7-23.7c-16.7-9-41.3-5.3-54.7 8.1l-29.4 29.3c-13.4 13.4-35.3 13.4-48.7 0l-48.7-48.7c-13.4-13.4-13.4-35.4 0-48.8l29.3-29.3c13.5-13.4 17.1-38 8.1-54.7l-23.7-57.7c-5.6-18.1-25.7-32.9-44.7-32.9H98.8c-19 0-34.5-15.5-34.5-34.5v-68.9c0-19 15.5-34.5 34.5-34.5h41.3c19 0 39-14.9 44.6-32.9l23.8-57.7c8.9-16.7 5.3-41.4-8.1-54.8l-29.3-29.3c-13.3-13.4-13.3-35.3 0-48.8l48.8-48.8c13.4-13.4 35.3-13.4 48.7 0l29.4 29.3c13.3 13.4 38 17 54.6 8l57.8-23.7c18.1-5.6 32.9-25.7 32.9-44.7v-41.2c0-18.9 15.5-34.5 34.5-34.5h68.9c18.9 0 34.4 15.5 34.4 34.5v41.2c0 19 14.9 39.1 32.9 44.7l57.7 23.7c16.7 9 41.4 5.4 54.8-8l29.2-29.3c13.4-13.4 35.4-13.4 48.8 0l48.8 48.8c13.4 13.4 13.4 35.4 0 48.8l-29.4 29.3c-13.3 13.3-17 38-8 54.8l23.7 57.7c5.7 18.1 25.8 32.9 44.7 32.9h41.4c18.9 0 34.4 15.5 34.4 34.5v69c-0.1 18.8-15.6 34.3-34.5 34.3m-241.2-68.8c0-95.2-77.1-172.3-172.3-172.3-95.2 0-172.3 77.1-172.3 172.3 0 95.1 77.1 172.3 172.3 172.3 95.2-0.1 172.3-77.2 172.3-172.3"  horiz-adv-x="1024" />

    
    <glyph glyph-name="set" unicode="&#58909;" d="M836.738547 478.284363h-44.439118c-4.323469 0-8.172123 2.732228-9.526981 6.901177l-8.515954 25.335015c-1.207501 3.605108-0.228197 7.53665 2.413979 10.261715l29.756721 29.747511c23.26282 23.246447 23.26282 61.012585 0 84.268242l-43.557028 43.533492c-11.615549 11.622712-26.852578 17.398252-42.089607 17.398252s-30.5549-5.77554-42.187845-17.398252l-29.65746-29.747511a10.095939 10.095939 0 0 0-7.144724-2.961448 10.857279 10.857279 0 0 0-3.197832 0.480954l-25.350364 8.417717c-4.077875 1.362021-6.900154 5.212722-6.900154 9.543353v44.577265c0 32.872688-26.706245 59.5687-59.57791 59.5687h-69.52854c-32.871665 0-59.57791-26.697035-59.57791-59.5687v-44.421722c0-4.330632-2.724041-8.181333-6.900154-9.535167l-25.254173-8.499582c-1.043772-0.407276-2.169409-0.562818-3.214205-0.562818-2.642177 0-5.13802 1.035586-7.06286 2.961448l-29.740348 29.747511c-11.631922 11.622712-26.868951 17.398252-42.104956 17.398252-15.237029 0-30.53955-5.77554-42.186822-17.398252l-43.525306-43.533492c-23.26282-23.255657-23.26282-61.020772 0-84.268242l29.740348-29.747511c2.724041-2.725064 3.605108-6.655584 2.39863-10.342556l-8.41874-25.335015c-1.353834-4.087085-5.203512-6.901177-9.526981-6.901177h-44.503586c-32.888038 0-59.59326-26.697035-59.59326-59.5687v-69.512167c0-32.879851 26.705222-59.57791 59.59326-59.57791h44.405349c4.339842 0 8.18952-2.724041 9.559727-6.891968l8.417716-25.335014c1.207501-3.605108 0.228197-7.53665-2.413979-10.260692l-29.756721-29.747511c-23.246447-23.255657-23.246447-61.013609 0-84.187401l43.557028-43.532469c11.615549-11.623735 26.852578-17.398252 42.186822-17.398252 15.302521 0 30.474059 5.774517 42.089607 17.398252l29.756721 29.747511a10.101055 10.101055 0 0 0 7.128351 2.968612c1.044796 0 2.170432-0.170892 3.214205-0.571005l25.336038-8.41874c4.094248-1.362021 6.900154-5.212722 6.900153-9.543354v-44.421722c0-32.863479 26.705222-59.560514 59.577911-59.560514h69.527516c32.889061 0 59.57791 26.697035 59.57791 59.560514v44.421722c0 4.330632 2.741437 8.181333 6.900154 9.543354l25.416879 8.41874c1.044796 0.325411 2.169409 0.480954 3.214205 0.480954 2.6432 0 5.122671-1.044796 7.04751-2.961448l29.756721-29.755698c11.630898-11.615549 26.851555-17.390066 42.186821-17.390066 15.302521 0 30.474059 5.77554 42.089607 17.390066l43.557029 43.541679c23.24747 23.173792 23.24747 61.012585 0 84.186377l-29.919427 29.903054c-2.724041 2.733251-3.686972 6.656607-2.413979 10.350742l8.41874 25.335015c1.370207 4.087085 5.220908 6.901177 9.559726 6.901177h44.421722c32.871665 0 59.57791 26.697035 59.577911 59.560514v69.520353c0.078795 32.789801-26.708292 59.486836-59.498093 59.486836z m26.134217-129.008212c0-14.429641-11.712763-26.134217-26.134217-26.134217h-44.439118c-18.760273 0-35.351136-11.95017-41.208541-29.740348l-8.417716-25.343202c-5.285377-15.71082-1.289366-32.708959 10.506284-44.4954l29.755698-29.747511c4.878101-4.885264 7.602142-11.460006 7.602142-18.524912 0-6.972808-2.724041-13.547551-7.602142-18.515702l-43.557028-43.541679c-4.89345-4.885264-11.45182-7.610328-18.434862-7.610328s-13.556761 2.724041-18.531051 7.610328l-29.756721 29.747511c-8.172123 8.181333-19.086707 12.749372-30.702256 12.749372-4.666276 0-9.233292-0.717338-13.800308-2.251274l-25.498744-8.40953c-17.798365-5.938246-29.740348-22.537296-29.740348-41.215704v-44.421722c0-14.430664-11.712763-26.13524-26.150589-26.13524h-69.52854c-14.436804 0-26.15059 11.704576-26.15059 26.13524v44.421722c0 18.760273-11.941983 35.359322-29.740348 41.215704l-25.269523 8.40953c-4.469801 1.533936-9.136078 2.251274-13.866823 2.251274-11.550057 0-22.36538-4.494361-30.800493-12.749372l-29.740348-29.747511c-4.894474-4.885264-11.469216-7.610328-18.451234-7.610328-6.965645 0-13.540388 2.724041-18.515702 7.610328l-43.540656 43.541679c-4.89345 4.885264-7.618515 11.460006-7.618514 18.515702 0 6.982018 2.725064 13.556761 7.618514 18.442024l29.919427 29.829376c11.615549 11.704576 15.627932 28.703739 10.408047 44.421722l-8.41874 25.416879c-5.938246 17.790178-22.529109 29.740348-41.208541 29.740348h-44.503586c-14.4542 0-26.15059 11.704576-26.15059 26.134217v69.520354c0 14.429641 11.69639 26.142403 26.15059 26.142403h44.405349c18.777669 0 35.368532 11.94096 41.224914 29.740348l8.499581 25.415856c5.13802 15.637142 1.125637 32.627095-10.571776 44.422746l-29.756721 29.739324c-4.89345 4.894474-7.618515 11.469216-7.618515 18.524912 0 6.973832 2.725064 13.548574 7.618515 18.523889l43.540655 43.533493c4.894474 4.894474 11.550057 7.618515 18.515702 7.618514 6.982018 0 13.556761-2.724041 18.451234-7.618514l29.740348-29.747512c8.18952-8.173147 19.086707-12.749372 30.735002-12.749372 4.730745 0 9.461489 0.807389 13.784958 2.251274l25.497721 8.335852c17.799388 5.930059 29.658484 22.529109 29.658483 41.208541v44.503587c0 14.429641 11.712763 26.134217 26.15059 26.134217h69.52854c14.436804 0 26.15059-11.704576 26.15059-26.134217v-44.421723c0-18.760273 11.941983-35.359322 29.740348-41.20854l25.433252-8.499581c4.405333-1.443885 9.054213-2.243087 13.704116-2.243088 11.468193 0 22.381753 4.486174 30.800494 12.741186l29.65746 29.748534c4.894474 4.885264 11.550057 7.618515 18.532075 7.618515s13.540388-2.732228 18.532075-7.618515l43.524283-43.533492c4.894474-4.894474 7.634888-11.469216 7.634888-18.524912 0-6.973832-2.740414-13.548574-7.634888-18.523889l-29.821189-29.821189c-11.712763-11.704576-15.72617-28.785603-10.425444-44.421722l8.41874-25.335015c5.938246-17.798365 22.529109-29.739325 41.22389-29.739325h44.421723c14.437827 0 26.151613-11.713786 26.151613-26.142403v-69.438489h0.068561z m-350.84053 168.372755c-73.689303 0-133.674489-59.968813-133.674489-133.648906 0-73.680093 59.985186-133.657092 133.674489-133.657092 73.703629 0 133.689838 59.977 133.689838 133.657092 0 73.680093-59.986209 133.648906-133.689838 133.648906z m0-233.872538c-55.238069 0-100.230796 44.977377-100.230795 100.222609 0 55.238069 44.992727 100.222609 100.230795 100.222609 55.253418 0 100.247168-44.98454 100.247169-100.222609 0-55.244208-44.99375-100.222609-100.247169-100.222609z"  horiz-adv-x="1024" />

    
    <glyph glyph-name="chart" unicode="&#58930;" d="M972.067982-50.325604H49.546624V872.195755c0 12.881128-10.913178 23.804245-23.794307 23.804245A23.784367 23.784367 0 0 1 1.948072 872.195755v-945.749134c0-13.447659 10.356586-24.360837 23.804245-24.360838h946.315665c13.159424 0 23.804245 10.923117 23.804246 24.360838-0.009939 12.314597-10.644821 23.227775-23.804246 23.227775z m-532.797655 39.478273h176.380017c22.12453 0 39.756569 17.920273 39.756569 39.478272V803.039203c0 21.557999-17.632038 39.199977-39.756569 39.199977H439.270327a39.130403 39.130403 0 0 1-39.190037-39.199977v-774.418201c0-21.54806 17.353742-39.468334 39.190037-39.468333z m39.199977 774.129966h97.990003V68.09927500000003H478.470304V763.282635zM136.335213-10.847331000000054h176.668252c21.557999 0 39.478273 17.920273 39.478273 39.478272V301.60948099999996c0 22.12453-17.920273 39.756569-39.478273 39.756569H136.335213c-21.836295 0-39.190038-17.632038-39.190037-39.756569v-272.97854c0-21.557999 17.363681-39.478273 39.190037-39.478272z m39.756569 273.256835h97.43341v-194.310229h-97.43341V262.40950399999997z m566.113659-273.256835H918.873693c21.557999 0 39.190038 17.920273 39.190038 39.478272V592.220059c0 21.557999-17.632038 39.756569-39.190038 39.756568H742.205441c-21.826356 0-39.756569-18.198569-39.756568-39.756568v-563.589118c0-21.557999 17.930212-39.478273 39.756568-39.478272z m39.756569 563.589117h97.155115V68.09927500000003h-97.155115V552.741786z"  horiz-adv-x="1026" />

    
    <glyph glyph-name="arrow-down-circle" unicode="&#59128;" d="M231.91393 103.20222100000001c71.800279-71.14434 170.937161-115.542526 280.334733-115.542526 109.39859599 0 208.534454 44.398186 280.334733 115.542526 71.222111 71.713298 115.669416 170.74273201 115.669416 280.025695l0 0c0 109.282962-44.447305 208.303186-115.669416 280.026718l0 0c-71.800279 71.704089-170.936137 116.111484-280.334733 116.111484l0 0 0 0 0 0c-109.397572 0-208.534454-44.407396-280.334733-116.111484-71.78186-71.724555-116.227118-170.743756-116.227118-280.026718l0 0 0 0C115.686812 273.94495300000005 160.131047 174.91551900000002 231.91393 103.20222100000001L231.91393 103.20222100000001zM829.043796 66.77149699999995c-81.484849-80.8197-193.140858-130.909515-316.796156-130.909515-123.634832 0-235.888452 50.088792-316.795133 130.909515-80.906681 81.387635-131.043568 192.947454-131.043568 316.456419 0 123.50077801 50.135864 235.637742 131.043568 316.447209C276.359188 780.504034 388.613832 830.583616 512.248663 830.583616c123.65529801 0 235.310284-50.079582 316.796156-130.908492C909.950478 618.86668 960.106808 506.728694 960.106808 383.22791500000005l0 0C960.106808 259.71895099999995 909.950478 148.15913201 829.043796 66.77149699999995L829.043796 66.77149699999995zM751.551888 461.760526c4.572132-4.551666 7.408737-10.803044 7.408737-18.210757l0 0c0-3.412726-0.559748-6.828522-1.717108-9.66308-1.697665-3.415796-3.39533-6.27082-5.691629-8.547677l0 0-221.054605-200.913892c-2.856048-2.276856-5.130857-3.984754-8.565073-5.691629-2.855024-1.137916-6.250354-1.706875-9.68457-1.706875-3.413749 0-6.829546 0.568958-10.263761 1.706875-2.834558 1.706875-5.689582 3.414773-7.96643899 5.691629L272.944416 425.340035l0 0c-2.854001 2.276856-4.552689 5.131881-5.690606 8.547677-1.137916 2.83558099-2.276856 6.250354-2.276856 9.66308 0 7.407714 3.413749 13.659091 7.966439 18.210757l0 0c4.553713 4.552689 10.82351 7.407714 18.2302 7.407714 3.41477299 0 6.847965-0.559748 9.683547-1.697665 2.856048-1.157359 5.71107199-3.433192 7.987928-5.710049l203.402573-184.401824L715.092511 461.760526c2.275833 2.276856 5.131881 4.552689 7.966439 5.710049 3.43319199 1.137916 6.848988 1.69766499 10.262738 1.697665C740.15021 469.16926301 746.999199 466.314239 751.551888 461.760526L751.551888 461.760526z"  horiz-adv-x="1024" />

    
    <glyph glyph-name="arrow-down" unicode="&#59126;" d="M497.888 300.288l197.28000001 205.44c10.432 8.864 25.968 7.504 34.68799999-3.024 8.736-10.528 7.36-26.24-3.072-35.08799999l-197.28-205.42400001c-10.432-8.864-25.968-7.504-34.688 3.008S487.44 291.44000000000005 497.888 300.288zM328.32 505.744l197.28-205.44c10.432-8.864 11.808-24.56 3.088-35.088-8.736-10.528-24.272-11.872-34.688-3.024l-197.28 205.44c-10.432 8.848-11.808 24.56-3.072 35.088C302.33599999 513.248 317.872 514.608 328.32 505.744z"  horiz-adv-x="1024" />

    
    <glyph glyph-name="arrow-left" unicode="&#59127;" d="M428.288 398.112l205.44-197.28000001c8.864-10.432 7.504-25.968-3.024-34.68799999-10.528-8.736-26.24-7.36-35.08799999 3.072l-205.42400001 197.28c-8.864 10.432-7.504 25.968 3.008 34.688S419.44 408.56 428.288 398.112zM633.744 567.6800000000001l-205.44-197.28c-8.864-10.432-24.56-11.808-35.088-3.088-10.528 8.736-11.872 24.272-3.024 34.688l205.44 197.28c8.848 10.432 24.56 11.808 35.088 3.072C641.248 593.66400001 642.608 578.1279999999999 633.744 567.6800000000001z"  horiz-adv-x="1024" />

    
    <glyph glyph-name="arrow-up-circle" unicode="&#59130;" d="M792.08607 664.797779c-71.800279 71.14434-170.937161 115.542526-280.334733 115.542526-109.39859599 0-208.534454-44.398186-280.334733-115.542526-71.222111-71.713298-115.669416-170.74273201-115.669416-280.025695l0 0c0-109.282962 44.447305-208.303186 115.669416-280.026718l0 0c71.800279-71.704089 170.936137-116.111484 280.334733-116.111484l0 0 0 0 0 0c109.397572 0 208.534454 44.407396 280.334733 116.111484 71.78186 71.724555 116.227118 170.743756 116.227118 280.026718l0 0 0 0C908.313188 494.055047 863.868953 593.084481 792.08607 664.797779L792.08607 664.797779zM194.956204 701.228503c81.484849 80.8197 193.140858 130.909515 316.796156 130.909515 123.634832 0 235.888452-50.088792 316.795133-130.909515 80.906681-81.387635 131.043568-192.947454 131.043568-316.456419 0-123.50077801-50.135864-235.637742-131.043568-316.447209C747.640812-12.504034000000047 635.386168-62.583616000000006 511.751337-62.583616000000006c-123.65529801 0-235.310284 50.079582-316.796156 130.908492C114.049522 149.13332000000003 63.893192 261.271306 63.893192 384.772085l0 0C63.893192 508.281049 114.049522 619.84086799 194.956204 701.228503L194.956204 701.228503zM272.448112 306.239474c-4.572132 4.551666-7.408737 10.803044-7.408737 18.210757l0 0c0 3.412726 0.559748 6.828522 1.717108 9.66308 1.697665 3.415796 3.39533 6.27082 5.691629 8.547677l0 0 221.054605 200.913892c2.856048 2.276856 5.130857 3.984754 8.565073 5.691629 2.855024 1.137916 6.250354 1.706875 9.68457 1.706875 3.413749 0 6.829546-0.568958 10.263761-1.706875 2.834558-1.706875 5.689582-3.414773 7.96643899-5.691629L751.055584 342.65996500000006l0 0c2.854001-2.276856 4.552689-5.131881 5.690606-8.547677 1.137916-2.83558099 2.276856-6.250354 2.276856-9.66308 0-7.407714-3.413749-13.659091-7.966439-18.210757l0 0c-4.553713-4.552689-10.82351-7.407714-18.2302-7.407714-3.41477299 0-6.847965 0.559748-9.683547 1.697665-2.856048 1.157359-5.71107199 3.433192-7.987928 5.710049l-203.402573 184.401824L308.907489 306.239474c-2.275833-2.276856-5.131881-4.552689-7.966439-5.710049-3.43319199-1.137916-6.848988-1.69766499-10.262738-1.697665C283.84979 298.83073699 277.000801 301.68576099999996 272.448112 306.239474L272.448112 306.239474z"  horiz-adv-x="1024" />

    
    <glyph glyph-name="arrow-left-circle" unicode="&#59131;" d="M231.202221 664.0860700000001c-71.14434-71.800279-115.542526-170.937161-115.542526-280.334733 0-109.39859599 44.398186-208.534454 115.542526-280.334733 71.713298-71.222111 170.74273201-115.669416 280.025695-115.669416l0 0c109.282962 0 208.303186 44.447305 280.026718 115.669416l0 0c71.704089 71.800279 116.111484 170.936137 116.111484 280.334733l0 0 0 0 0 0c0 109.397572-44.407396 208.534454-116.111484 280.334733-71.724555 71.78186-170.743756 116.227118-280.026718 116.227118l0 0 0 0C401.944953 780.313188 302.915519 735.868953 231.202221 664.0860700000001L231.202221 664.0860700000001zM194.771497 66.95620399999996c-80.8197 81.484849-130.909515 193.140858-130.909515 316.796156 0 123.634832 50.088792 235.888452 130.909515 316.795133 81.387635 80.906681 192.947454 131.043568 316.456419 131.043568 123.50077801 0 235.637742-50.135864 316.447209-131.043568C908.504034 619.640812 958.583616 507.386168 958.583616 383.75133700000004c0-123.65529801-50.079582-235.310284-130.908492-316.796156C746.86668-13.950477999999976 634.728694-64.106808 511.227915-64.106808l0 0C387.718951-64.106808 276.15913201-13.950477999999976 194.771497 66.95620399999996L194.771497 66.95620399999996zM589.760526 144.44811200000004c-4.551666-4.572132-10.803044-7.408737-18.210757-7.408737l0 0c-3.412726 0-6.828522 0.559748-9.66308 1.717108-3.415796 1.697665-6.27082 3.39533-8.547677 5.691629l0 0-200.913892 221.054605c-2.276856 2.856048-3.984754 5.130857-5.691629 8.565073-1.137916 2.855024-1.706875 6.250354-1.706875 9.68457 0 3.413749 0.568958 6.829546 1.706875 10.263761 1.706875 2.834558 3.414773 5.689582 5.691629 7.96643899L553.340035 623.055584l0 0c2.276856 2.854001 5.131881 4.552689 8.547677 5.690606 2.83558099 1.137916 6.250354 2.276856 9.66308 2.276856 7.407714 0 13.659091-3.413749 18.210757-7.966439l0 0c4.552689-4.553713 7.407714-10.82351 7.407714-18.2302 0-3.41477299-0.559748-6.847965-1.697665-9.683547-1.157359-2.856048-3.433192-5.71107199-5.710049-7.987928l-184.401824-203.402573L589.760526 180.90748900000006c2.276856-2.275833 4.552689-5.131881 5.710049-7.966439 1.137916-3.43319199 1.69766499-6.848988 1.697665-10.262738C597.16926301 155.84978999999998 594.314239 149.00080100000002 589.760526 144.44811200000004L589.760526 144.44811200000004z"  horiz-adv-x="1024" />

    
    <glyph glyph-name="search" unicode="&#58913;" d="M447.325002 766.080022c-178.868807 0-323.872319-145.003512-323.872319-323.874365s145.003512-323.874365 323.872319-323.874365c178.870854 0 323.874365 145.003512 323.874365 323.874365S626.195855 766.080022 447.325002 766.080022zM447.325002 182.287929c-143.31915 0-259.915681 116.598578-259.915681 259.917728s116.596532 259.917728 259.915681 259.917728 259.917728-116.598578 259.917728-259.917728S590.643128 182.287929 447.325002 182.287929zM891.573945 55.938266 748.236376 199.300394c-13.43601-16.625656-28.371164-31.91385-44.338834-46.099944l142.458549-142.481062c6.246261-6.246261 14.427594-9.368368 22.60995-9.368368s16.363689 3.123131 22.60995 9.368368C904.065444 23.210887 904.065444 43.446767 891.573945 55.938266z"  horiz-adv-x="1024" />

    
    <glyph glyph-name="clock" unicode="&#58880;" d="M512 684C264.576 684 64 483.424 64 236s200.576-448 448-448 448 200.576 448 448S759.424 684 512 684zM512-124c-198.824 0-360 161.178-360 360 0 198.824 161.176 360 360 360 198.822 0 360-161.176 360-360C872 37.178 710.822-124 512-124zM934.784 524.826C950.826 552.878 960 585.368 960 620c0 106.04-85.96 192-192 192-61.818 0-116.802-29.222-151.92-74.596C747.964 710.168 861.286 632.206 934.784 524.826zM407.92 737.404C372.804 782.778 317.818 812 256 812 149.96 812 64 726.04 64 620c0-34.632 9.174-67.122 25.216-95.174C162.716 632.206 276.038 710.168 407.92 737.404zM448 492l64 0 0-320-64 0L448 492zM512 236l192 0 0-64-192 0L512 236z"  horiz-adv-x="1024" />

    
    <glyph glyph-name="arrow-right" unicode="&#58934;" d="M595.712 369.88800000000003l-205.44 197.28c-8.864 10.432-7.504 25.968 3.024 34.688 10.528 8.736 26.24 7.36 35.088-3.072l205.424-197.28c8.864-10.432 7.504-25.968-3.008-34.688S604.56 359.44000000000005 595.712 369.88800000000003zM390.256 200.32000000000005l205.44 197.28c8.864 10.432 24.56 11.808 35.088 3.088 10.528-8.736 11.872-24.272 3.024-34.688l-205.44-197.28c-8.848-10.432-24.56-11.808-35.088-3.072C382.752 174.336 381.392 189.87199999999996 390.256 200.32000000000005z"  horiz-adv-x="1024" />

    
    <glyph glyph-name="table" unicode="&#59033;" d="M63.29814 775.984602l0-783.435039 895.355061 0L958.653201 775.984602 63.29814 775.984602 63.29814 775.984602zM399.05616 272.348084 399.05616 440.226582l223.840044 0 0-167.879522L399.05616 272.347061 399.05616 272.348084zM622.896204 216.388585l0-167.881568L399.05616 48.507016 399.05616 216.388585 622.896204 216.388585 622.896204 216.388585zM622.896204 664.066627l0-167.881568L399.05616 496.185059 399.05616 664.066627 622.896204 664.066627 622.896204 664.066627zM343.09666 664.066627l0-167.881568L119.257639 496.185059 119.257639 664.066627 343.09666 664.066627 343.09666 664.066627zM119.257639 440.226582l223.840044 0 0-167.879522L119.257639 272.347061 119.257639 440.226582 119.257639 440.226582zM678.855704 440.226582l223.840044 0 0-167.879522L678.855704 272.347061 678.855704 440.226582 678.855704 440.226582zM678.855704 496.185059 678.855704 664.066627l223.840044 0 0-167.881568L678.855704 496.185059 678.855704 496.185059zM119.257639 216.388585l223.840044 0 0-167.881568L119.257639 48.507016 119.257639 216.388585 119.257639 216.388585zM678.855704 48.507016 678.855704 216.388585l223.840044 0 0-167.881568L678.855704 48.507016 678.855704 48.507016zM678.855704 48.507016"  horiz-adv-x="1024" />

    
    <glyph glyph-name="arrow-right-circle" unicode="&#58893;" d="M792.797779 103.91393000000005c71.14434 71.800279 115.542526 170.937161 115.542526 280.334733 0 109.398596-44.398186 208.534454-115.542526 280.334733-71.713298 71.222111-170.742732 115.669416-280.025695 115.669416l0 0c-109.282962 0-208.303186-44.447305-280.026718-115.669416l0 0c-71.704089-71.800279-116.111484-170.936137-116.111484-280.334733l0 0 0 0 0 0c0-109.397572 44.407396-208.534454 116.111484-280.334733 71.724555-71.78186 170.743756-116.227118 280.026718-116.227118l0 0 0 0C622.055047-12.313187999999968 721.084481 32.13104699999997 792.797779 103.91393000000005L792.797779 103.91393000000005zM829.228503 701.0437959999999c80.8197-81.484849 130.909515-193.140858 130.909515-316.796156 0-123.634832-50.088792-235.888452-130.909515-316.795133-81.387635-80.906681-192.947454-131.043568-316.456419-131.043568-123.500778 0-235.637742 50.135864-316.447209 131.043568C115.495966 148.35918800000002 65.416384 260.613832 65.416384 384.248663c0 123.655298 50.079582 235.310284 130.908492 316.796156C277.13332 781.950478 389.271306 832.106808 512.772085 832.106808l0 0C636.281049 832.106808 747.840868 781.950478 829.228503 701.0437959999999L829.228503 701.0437959999999zM434.239474 623.551888c4.551666 4.572132 10.803044 7.408737 18.210757 7.408737l0 0c3.412726 0 6.828522-0.559748 9.66308-1.717108 3.415796-1.697665 6.27082-3.39533 8.547677-5.691629l0 0 200.913892-221.054605c2.276856-2.856048 3.984754-5.130857 5.691629-8.565073 1.137916-2.855024 1.706875-6.250354 1.706875-9.68457 0-3.413749-0.568958-6.829546-1.706875-10.263761-1.706875-2.834558-3.414773-5.689582-5.691629-7.966439L470.659965 144.94441600000005l0 0c-2.276856-2.854001-5.131881-4.552689-8.547677-5.690606-2.835581-1.137916-6.250354-2.276856-9.66308-2.276856-7.407714 0-13.659091 3.413749-18.210757 7.966439l0 0c-4.552689 4.553713-7.407714 10.82351-7.407714 18.2302 0 3.414773 0.559748 6.847965 1.697665 9.683547 1.157359 2.856048 3.433192 5.711072 5.710049 7.987928l184.401824 203.402573L434.239474 587.0925110000001c-2.276856 2.275833-4.552689 5.131881-5.710049 7.966439-1.137916 3.433192-1.697665 6.848988-1.697665 10.262738C426.830737 612.15021 429.685761 618.999199 434.239474 623.551888L434.239474 623.551888z"  horiz-adv-x="1024" />

    
    <glyph glyph-name="help" unicode="&#58973;" d="M827.833737 699.859831C743.469304 784.249847 631.311875 830.709995 511.998465 830.709995c-119.311363 0-231.512794-46.479591-315.882344-130.850164C111.749642 615.508701 65.290517 503.331829 65.290517 384.001023c0-119.335922 46.459125-231.495398 130.830721-315.859831 84.364433-84.390016 196.566888-130.850164 315.878251-130.850164 119.31341 0 231.470839 46.479591 315.840388 130.850164 84.409458 84.346013 130.869606 196.523909 130.869606 315.859831C958.70846 503.331829 912.249335 615.4892580000001 827.833737 699.859831zM540.442284 128.53570100000002c-7.460925-7.460925-17.929348-11.796674-28.443819-11.796674-10.511401 0-20.985964 4.335748-28.442796 11.796674-7.414877 7.460925-11.731182 17.886369-11.731182 28.398794 0 10.536984 4.316306 21.005406 11.731182 28.42233 7.456832 7.455809 17.930371 11.778254 28.442796 11.778254 10.513448 0 20.982894-4.322445 28.443819-11.778254 7.372921-7.416923 11.733229-17.886369 11.733229-28.42233C552.175513 146.42206999999996 547.815205 135.996626 540.442284 128.53570100000002zM591.52573 364.366847c-34.028001-27.720342-50.951439-59.438741-50.951439-95.230921l-0.352017-10.951423-0.088004-0.082888c-1.1328-15.400758-13.95585-27.484981-29.661553-27.484981-16.403598 0-29.750581 13.305027-29.750581 29.731138 0 0.89437 0.085958 1.787716 0.172939 2.681062l-0.044002 0.067538c0 34.765805 3.317559 59.96165 9.990538 75.600839 6.675026 15.591093 21.901823 33.979906 45.543266 55.136761l24.170492 21.552875c32.500205 29.228695 48.724725 58.066487 48.724725 86.529749 0 24.428366-8.724709 44.452421-26.215058 60.068074-17.495466 15.600303-39.785122 23.427572-66.74924 23.427572-69.705572 0-104.824417-39.96113-105.35142-119.897717 0-0.086981 0.042979-0.155543 0.042979-0.218988 0-0.112564-0.042979-0.243547-0.042979-0.352017l0-1.196245-0.044002 0c-0.780783-16.908088-14.740726-30.40959-31.884175-30.40959-17.144472 0-31.104415 13.500479-31.890314 30.40959L347.057879 463.747275c0 53.896514 15.440667 96.449679 46.328142 127.684054 30.794353 31.280424 72.850192 46.87561 125.985366 46.87561 46.89403 0 84.848457-12.978593 113.902166-38.934754 29.140691-25.932626 43.666522-59.697637 43.666522-101.248985C676.940075 455.562872 648.498302 410.939559 591.52573 364.366847z"  horiz-adv-x="1024" />

    
    <glyph glyph-name="mark" unicode="&#58941;" d="M677.720857 524.852982c0 91.64321-74.28589 165.928077-165.928077 165.928077s-165.928077-74.28589-165.928077-165.928077S420.149571 358.92490499999997 511.79278 358.92490499999997 677.720857 433.210795 677.720857 524.852982zM382.737496 524.852982c0 71.26202 57.776891 129.055285 129.055285 129.055285 71.279417 0 129.055285-57.794287 129.055285-129.055285 0-71.278393-57.775868-129.055285-129.055285-129.055285C440.513364 395.797697 382.737496 453.574588 382.737496 524.852982zM806.776142 524.852982c0 162.903184-132.061758 294.984385-294.984385 294.984385S216.808396 687.757189 216.808396 524.852982s294.984385-516.222161 294.984385-516.222161S806.776142 361.949798 806.776142 524.852982zM511.79278 782.964574c142.540414 0 258.110569-115.552759 258.110569-258.111592 0-142.558833-258.110569-460.912461-258.110569-460.912461S253.681188 382.295172 253.681188 524.852982C253.681188 667.4118149999999 369.251344 782.964574 511.79278 782.964574zM642.187573 126.812453c-8.074909-11.081383-15.950274-21.710464-23.52274-31.794124 78.722946-9.06854 132.801609-27.838022 132.801609-49.513694 0-30.53648-107.304911-55.3097-239.674685-55.3097-132.36875 0-239.674685 24.77322-239.674685 55.3097 0 21.675672 54.079686 40.444131 132.802632 49.513694-7.572466 10.083659-15.448854 20.712741-23.52274 31.794124-86.981027-15.531741-146.152684-46.113247-146.152684-81.307817 0-50.916647 123.81698-92.182492 276.5485-92.182492s276.547477 41.265846 276.547477 92.182492C788.340257 80.699206 729.1686 111.280712 642.187573 126.812453z"  horiz-adv-x="1024" />

    
    <glyph glyph-name="money" unicode="&#58944;" d="M700.416 617.472c-8.192 8.192-20.48 8.192-28.672 0l-159.744-159.744L352.256 617.472c-8.192 8.192-20.48 8.192-28.672 0s-8.192-20.48 0-28.672l139.264-139.264L335.872 449.536c-12.288 0-20.48-8.192-20.48-20.48s8.192-20.48 20.48-20.48L491.52 408.576l0-106.496L335.872 302.08000000000004c-12.288 0-20.48-8.192-20.48-20.48s8.192-20.48 20.48-20.48L491.52 261.12l0-192.512c0-12.288 8.192-20.48 20.48-20.48s20.48 8.192 20.48 20.48l0 192.512 155.648 0c12.288 0 20.48 8.192 20.48 20.48s-8.192 20.48-20.48 20.48L532.48 302.08000000000004l0 106.496 155.648 0c12.288 0 20.48 8.192 20.48 20.48s-8.192 20.48-20.48 20.48l-126.976 0 139.264 139.264C708.608 596.992 708.608 609.28 700.416 617.472zM512 809.984C278.528 809.984 86.016 617.472 86.016 384s188.416-425.984 425.984-425.984c233.472 0 425.984 188.416 425.984 425.984S745.472 809.984 512 809.984zM512-1.024000000000001c-212.992 0-385.024 172.032-385.024 385.024s172.032 385.024 385.024 385.024c212.992 0 385.024-172.032 385.024-385.024S724.992-1.024000000000001 512-1.024000000000001z"  horiz-adv-x="1024" />

    
    <glyph glyph-name="analyse" unicode="&#59090;" d="M819.2 32L819.2 492.8 691.2 435.2 691.2 32 595.2 32 595.2 403.2 505.6 358.4 467.2 396.8 467.2 32 396.8 32 396.8 448 268.8 377.6 268.8 32 160 32 160 768 128 768 128 32 128 0 160 0 896 0 896 32ZM435.2 531.2L512 396.8 544 416 544 416 793.6 563.2 844.8 480 883.2 640 723.2 678.4 774.4 595.2 524.8 448 448 582.4 448 582.4 448 582.4 192 428.8 211.2 396.8Z"  horiz-adv-x="1024" />

    
    <glyph glyph-name="dealt" unicode="&#58954;" d="M372.674303 278.158417L208.583061 278.158417l0-55.112202 158.683069 0C367.966071 241.81774399999995 369.801882 260.210649 372.674303 278.158417L372.674303 278.158417zM208.583061 492.135836l353.807095 0c29.618575 13.797237 61.45363 22.044062 94.675266 23.715121l0 31.399127L208.583061 547.250084 208.583061 492.135836 208.583061 492.135836zM158.507572 126.50955499999998c-20.847817 0-29.540803 8.698103-29.540803 29.526477l0 593.077573c0 20.828374 8.694009 29.52443 29.540803 29.52443l548.628222 0c20.826328 0 29.54592-8.696056 29.54592-29.52443l0-237.22489c23.485901-4.300956 33.708729-11.326976 54.92596-20.72502L791.607674 788.783093c0 24.76708-20.083407 44.847417-44.847417 44.847417L118.888226 833.630511c-24.769127 0-44.852534-20.081361-44.852534-44.847417l0-672.728658c0-24.758893 20.083407-44.847417 44.852534-44.847417l283.845697 0c-11.346419 21.157879-20.263509 31.520901-26.356274 55.302537L178.973696 126.50955499999998 158.507572 126.50955499999998zM208.583061 681.794383l448.481338 0 0-55.113225-448.481338 0 0 55.113225ZM679.400103 475.764983c-148.146085 0-268.25358-120.091122-268.25358-268.258697 0-148.144038 120.112612-268.257673 268.25358-268.257673 148.164504 0 268.25665 120.114658 268.25665 268.257673C947.656753 355.673861 827.564607 475.764983 679.400103 475.764983zM679.87901-9.252478999999994C560.885895-9.252478999999994 464.4311 87.19822399999998 464.4311 206.18929200000002c0 118.999255 96.455819 215.45712 215.44791 215.45712 119.001301 0 215.452004-96.457866 215.452004-215.45712C895.32999 87.19822399999998 798.875195-9.252478999999994 679.87901-9.252478999999994zM208.583061 412.706809l0-55.113225 197.292412 0c8.973372 19.528775 19.332301 37.97387 30.9325 55.113225L208.583061 412.706809zM681.543929 181.487703L681.543929 306.070116 627.394658 306.070116 627.394658 126.31717300000003 807.143509 126.31717300000003 807.143509 181.487703Z"  horiz-adv-x="1024" />

    
    <glyph glyph-name="change" unicode="&#58894;" d="M920.865573 258.27762399999995H102.113167c-2.795673 0-5.514597-0.320295-8.133237-0.911766a36.95875 36.95875 0 0 1-18.426675-10.094916c-12.353352-12.419867-14.18814-31.399127-5.52176-45.776579a37.767162 37.767162 0 0 1 8.416693-9.992585l172.344207-173.278485c14.516622-14.59337 38.053688-14.59337 52.572356 0 14.516622 14.598486 14.516622 38.262442 0 52.856835L192.145693 182.90191300000004h728.718857c20.554128 0 37.217646 16.873296 37.217646 37.685297 0 20.820188-16.662495 37.690414-37.216623 37.690414zM102.113167 509.532041h818.752406a36.920888 36.920888 0 0 1 7.80271 0.836041 36.917818 36.917818 0 0 1 19.774369 10.360976c14.517645 14.59644 14.517645 38.262442 0 52.855811L773.199419 749.774661c-14.515598 14.595416-38.054711 14.595416-52.571333 0-14.515598-14.594393-14.515598-38.261419 0-52.856835l111.408369-112.010073H102.113167c-20.554128 0-37.2156-16.873296-37.2156-37.689391 0-20.814048 16.660448-37.686321 37.2156-37.686321z"  horiz-adv-x="1024" />

    
    <glyph glyph-name="bell" unicode="&#59115;" d="M861.40397037 178.5325037c8.49540741 0.24272592 16.99081482-1.45635555 25.12213333-6.79632592-29.4912 18.93262222-48.90927408 51.94334815-48.90927407 89.68722963V471.98814815c0 154.25232592-111.53256297 283.01842963-260.56628148 314.69416296V794.20681482c0 39.3216-31.7970963 70.99733333-70.99733333 70.99733333s-70.99733333-31.7970963-70.99733334-70.99733333v-7.52450371c-149.03371852-31.67573333-260.56628148-160.32047408-260.56628148-314.69416296V261.42340741c0-37.74388148-19.53943703-70.75460741-48.90927408-89.68722963 8.25268148 5.33997037 16.62672592 7.16041482 25.12213333 6.79632592-26.09303703-0.12136297-47.21019259-21.11715555-47.21019258-47.33155555s21.11715555-47.33155555 47.33155555-47.33155556h710.33742223c26.2144 0 47.33155555 21.11715555 47.33155555 47.33155556 0.12136297 25.97167408-20.99579259 47.21019259-47.08882963 47.33155555zM506.17457778-82.03377778000004c65.41463703 0 118.45025185 53.03561482 118.45025185 118.45025186H387.72432592c0-65.41463703 52.91425185-118.45025185 118.45025186-118.45025186z"  horiz-adv-x="1024" />

    
    <glyph glyph-name="time" unicode="&#58957;" d="M508.8-96C246.4-96 32 118.4 32 384S246.4 864 508.8 864s476.8-214.4 476.8-480c3.2-265.6-211.2-480-476.8-480z m0 896C281.6 800 96 614.4 96 384s185.6-416 412.8-416c227.2 0 412.8 185.6 412.8 416 3.2 230.4-182.4 416-412.8 416zM704 320h-224c-19.2 0-32 12.8-32 32v224c0 19.2 12.8 32 32 32s32-12.8 32-32v-192h192c19.2 0 32-12.8 32-32s-12.8-32-32-32z"  horiz-adv-x="1024" />

    
    <glyph glyph-name="skin" unicode="&#58980;" d="M511.57333333 810.13333333c-311.25333333 0-426.34666667-272-426.34666666-424.53333333s110.72-427.30666667 417.38666666-427.30666667c0 0 76.16-1.38666667 76.16 67.41333334 0 68.69333333-34.24 46.72-34.24 96.10666666 0 49.49333333 34.24 71.46666667 50.66666667 71.46666667 16.42666667 0 124.8-8.21333333 185.17333333 15.25333333 60.26666667 23.14666667 157.54666667 97.38666667 157.54666667 223.78666667 0 111.25333333-115.09333333 377.81333333-426.34666667 377.81333333zM251.62666667 384.10666667c-19.62666667 0-38.50666667 7.78666667-52.48 21.76-13.86666667 13.97333333-21.65333333 32.85333333-21.65333334 52.48-0.74666667 26.98666667 13.12 52.16 36.37333334 65.92 23.25333333 13.76 52.05333333 13.76 75.30666666 0 23.25333333-13.76 37.12-38.93333333 36.37333334-65.92 0.21333333-40.85333333-32.96-74.13333333-73.92-74.24z m139.62666666 183.68c-19.62666667 0-38.50666667 7.78666667-52.37333333 21.76-13.86666667 13.86666667-21.65333333 32.74666667-21.65333333 52.48 0 40.85333333 33.17333333 74.02666667 74.02666666 74.02666666 40.85333333 0 74.02666667-33.17333333 74.02666667-74.02666666 0.10666667-41.06666667-33.06666667-74.24-74.02666667-74.24z m237.44 0c-40.85333333 0-74.02666667 33.17333333-74.02666666 74.24-0.74666667 26.98666667 13.12 52.16 36.37333333 65.92a74.34666667 74.34666667 0 0 0 75.30666667 0c23.25333333-13.76 37.12-38.93333333 36.37333333-65.92 0.10666667-41.06666667-33.06666667-74.24-74.02666667-74.24z m141.01333334-183.68c-40.85333333 0-74.02666667 33.17333333-74.02666667 74.24-0.74666667 26.98666667 13.12 52.16 36.37333333 65.92 23.25333333 13.76 52.05333333 13.76 75.30666667 0 23.25333333-13.76 37.12-38.93333333 36.37333333-65.92 0.10666667-19.62666667-7.68-38.50666667-21.54666666-52.48-13.97333333-13.86666667-32.74666667-21.76-52.48-21.76z m0 0"  horiz-adv-x="1024" />

    
    <glyph glyph-name="mail" unicode="&#59055;" d="M1021.407 749.143L512.645 321.217 3.909 749.143zM0.007 712.598L339.886 424.76 0.007 19.256999999999948zM39.354 18.855999999999995L363.529 401.6 512.54 279.22799999999995l149.274 126.179 324.157-386.551zM1023.993 19.256999999999948L684.122 424.76l339.871 287.838z"  horiz-adv-x="1024" />

    
    <glyph glyph-name="email" unicode="&#58920;" d="M1024.00144 675.36v-574.32c0-5.76-0.736-11.456-1.824-17.072v-0.064l-0.224-0.944A84.336 84.336 0 0 0 939.29744 16H101.08944a102.72 102.72 0 0 0-82.512 40.832 95.904 95.904 0 0 0-18.56 57.248V659.744a74.08 74.08 0 0 0 52.064 70.784l0.736 0.208 0.208 0.08A127.648 127.648 0 0 0 89.66544 736h883.424c1.328-0.512 2.64-1.232 4.032-1.44 25.52-4.32 40.592-19.152 45.344-44.496v-0.08c0.88-4.816 1.536-9.712 1.536-14.608zM512.00144 304.768l451.152 379.472c-66.272 3.888-888.48 1.728-897.84-2.368L512.00144 304.8v-0.064z m133.856 45.152l-114.112-96.144c-13.76-11.52-25.6-11.664-39.2-0.208l-48.272 40.752-63.84 53.936L81.02544 70.72l1.024-2.304h873.328L645.79344 349.92h0.064z m-304.864 31.68L51.79344 625.968v-512.48l289.28 268.096h-0.08z m344.352 1.648l287.088-260.96V625.056L685.34544 383.232z"  horiz-adv-x="1024" />

    
    <glyph glyph-name="meeting" unicode="&#58898;" d="M434.093791 794.718048m-101.281953 0a101.281952 101.281952 0 1 1 202.563905 0 101.281952 101.281952 0 1 1-202.563905 0ZM434.093791 721.058446a172.310854 172.310854 0 0 0 172.310854-172.310854V435.627489H263.098286V548.7475919999999a172.310854 172.310854 0 0 0 170.995505 172.310854zM822.12205 794.718048m-101.281952 0a101.281952 101.281952 0 1 1 202.563905 0 101.281952 101.281952 0 1 1-202.563905 0ZM822.12205 721.058446a172.310854 172.310854 0 0 0 172.310854-172.310854V435.627489H649.811196V548.7475919999999a172.310854 172.310854 0 0 0 172.310854 172.310854zM434.093791 263.316635m-101.281953 0a101.281952 101.281952 0 1 1 202.563905 0 101.281952 101.281952 0 1 1-202.563905 0ZM434.093791 189.65703299999996a172.310854 172.310854 0 0 0 172.310854-172.310854v-112.462428H263.098286v112.462428a172.310854 172.310854 0 0 0 170.995505 172.310854zM822.12205 263.316635m-101.281952 0a101.281952 101.281952 0 1 1 202.563905 0 101.281952 101.281952 0 1 1-202.563905 0ZM822.12205 189.65703299999996a172.310854 172.310854 0 0 0 172.310854-172.310854v-112.462428H649.811196v112.462428a172.310854 172.310854 0 0 0 172.310854 172.310854zM1026.65898-62.232497999999964H282.828537a226.240206 226.240206 0 0 0 0 451.822736h743.830443a32.226076 32.226076 0 0 1 31.568401 32.88375 31.568401 31.568401 0 0 1-31.568401 32.883751H282.828537A287.403982 287.403982 0 0 1 0.02828 164.00770699999998a288.061657 288.061657 0 0 1 282.800257-292.007707h743.830443a32.883751 32.883751 0 0 1 0 65.767502z"  horiz-adv-x="1059" />

    
    <glyph glyph-name="today" unicode="&#58949;" d="M197.667 535c2.11 0 7.389 2.111 15.833 6.333 78.112 35.89 155.166 85.5 231.167 148.834 2.11 2.11 5.277 4.222 9.5 6.333 42.222 40.111 77.055 53.833 104.5 41.167 6.333-4.223 25.333-19 57-44.334 54.889-46.444 138.277-100.277 250.166-161.5 29.556-16.889 38-38 25.334-63.333-12.667-33.778-47.5-34.833-104.5-3.167-73.89 35.89-150.944 89.722-231.167 161.5-12.667 8.445-28.5 6.334-47.5-6.333l-3.167-3.167c-82.333-71.778-167.833-125.61-256.5-161.5-35.889-14.778-61.222-11.61-76 9.5C157.555 492.778 166 516 197.667 535z m47.5-174.167h525.666c59.112 0 86.556-22.166 82.334-66.5-63.334-183.667-240.666-281.833-532-294.5-38 2.111-57 19-57 50.667 4.222 23.222 26.388 36.944 66.5 41.167 192.112 8.444 324.055 60.166 395.833 155.166 10.556 16.89 9.5 26.39-3.167 28.5H245.167c-27.445 0-42.223 13.722-44.334 41.167 2.111 27.445 16.89 42.222 44.334 44.333zM546 395.667c-14.778 12.666-40.11 45.388-76 98.166-19 23.223-15.833 43.278 9.5 60.167 25.333 14.778 49.611 11.611 72.833-9.5 33.778-33.778 60.167-69.666 79.167-107.667 6.333-27.444-2.111-47.5-25.333-60.166-25.334-10.556-45.39-4.223-60.167 19z"  horiz-adv-x="1024" />

    
    <glyph glyph-name="user" unicode="&#58886;" d="M512 409.89076502A220.07150577 220.07150577 0 1 0 512 850.03377778a220.07150577 220.07150577 0 0 0 0-440.14301276zM45.96622222-30.252246509999964v25.89076503a362.47071645 362.47071645 0 0 0 362.47071646 362.47071646h207.12612264a362.47071645 362.47071645 0 0 0 362.47071646-362.47071646v-25.89076503a51.78153127 51.78153127 0 0 0-51.78153127-51.78153127H97.74775349a51.78153127 51.78153127 0 0 0-51.78153127 51.78153127z"  horiz-adv-x="1024" />

    
    <glyph glyph-name="listadd" unicode="&#58964;" d="M775.7 708c15.9 0 30.9-6.3 42.3-17.7 11.4-11.4 17.7-26.4 17.7-42.3v-527.6c0-15.9-6.3-30.9-17.7-42.3s-26.4-17.7-42.3-17.7H248c-15.9 0-30.9 6.3-42.3 17.7-11.4 11.4-17.7 26.4-17.7 42.3V648c0 15.9 6.3 30.9 17.7 42.3 11.4 11.4 26.4 17.7 42.3 17.7h527.7m0 60H248c-66 0-120-54-120-120v-527.6c0-66 54-120 120-120h527.6c66 0 120 54 120 120V648c0.1 66-53.9 120-119.9 120zM542.6 415.1l0.9 151.6c0.1 17.2-13.9 31.3-31.2 31.5-8.4 0-16.2-3.2-22.2-9.1l-0.1-0.1c-5.9-5.9-9.1-13.7-9.2-22l-0.8-151.7-150.5 0.2c-17.2 0-31.3-14-31.4-31.2-0.1-17.2 13.9-31.3 31.3-31.4l150.3-0.2-0.7-150.6c-0.1-17.3 13.9-31.4 31.1-31.5 8.4-0.1 16.4 3.2 22.4 9.2 5.8 5.8 9.1 13.6 9.2 22l0.8 150.7 153.1-0.2c8.4 0 16.3 3.3 22.2 9.2 5.9 5.9 9.1 13.7 9.2 22.1 0.1 17.2-13.9 31.3-31.3 31.4l-153.1 0.1z"  horiz-adv-x="1024" />

    
    <glyph glyph-name="sun" unicode="&#59125;" d="M512 649.481481c-147.949037 0-265.481481-117.532444-265.481481-265.481481 0-147.930074 117.532444-265.481481 265.481481-265.481481s265.481481 117.551407 265.481481 265.481481c0 147.949037-117.532444 265.481481-265.481481 265.481481z m0-455.111111c-105.509926 0-189.62963 84.119704-189.62963 189.62963s84.119704 189.62963 189.62963 189.62963 189.62963-84.119704 189.62963-189.62963-84.119704-189.62963-189.62963-189.62963zM283.591111 666.908444L170.799407 779.700148 116.698074 725.579852l112.772741-112.772741 54.120296 54.101333zM905.860741 725.598815l-54.101334 54.101333-112.791703-112.772741 54.120296-54.120296 112.772741 112.791704zM549.925926 896h-75.851852v-170.666667h75.851852V896zM170.666667 421.925926H0v-75.851852h170.666667v75.851852zM116.698074 44.638815l54.101333-54.120296 112.791704 112.791703-54.120296 54.101334-112.772741-112.772741zM853.333333 421.925926v-75.851852h170.666667v75.851852h-170.666667z m-114.365629-318.615704l112.791703-112.772741 54.101334 54.101334-112.772741 112.772741-54.120296-54.101334zM474.074074-128h75.851852v170.666667h-75.851852v-170.666667z"  horiz-adv-x="1024" />

    


  </font>
</defs>
</svg>
